Filmographie de la Célebre poupée Barbie regroupant les 21 filmes d'animation sortis a ce jour.

Liste des Films d'Animation

2001 : Barbie Casse-Noisette (Barbie in the Nutcracker)
2002 : Barbie, princesse Raiponce (Barbie as Rapunzel)
2003 : Barbie et le Lac des cygnes (Barbie of Swan Lake)
2004 : Barbie Cœur de princesse (Barbie as the Princess and the Pauper)
2005 : Barbie Fairytopia
2005 : Barbie et le Cheval magique (Barbie and the Magic of Pegasus 3D)
2006 : Le Journal de Barbie (The Barbie Diaries)
2006 : Barbie Mermaidia
2006 : Barbie au bal des 12 princesses (Barbie in the 12 Dancing Princesses)
2007 : Barbie Magie de L'arc-en-ciel (Barbie Fairytopia: Magic of the Rainbow)
2007 : Barbie Princesse de l'île merveilleuse (Barbie as the Island Princess)
2008 : Barbie Mariposa
2008 : Barbie et le palais de diamant (Barbie and the Diamond Castle)
2008 : Barbie et la magie de Noël (Barbie in a Christmas Carol)
2009 : Barbie présente Lilipucia (Barbie Thumbelina)
2009 : Barbie et les Trois Mousquetaires (Barbie and the Three Musketeers)
2010 : Barbie et le secret des sirènes (Barbie in A Mermaid Tale)
2010 : Barbie et la magie de la mode (Barbie: A Fashion Fairytale)
2011 : Barbie : le Secret des fées (Barbie: A Fairy Secret)
2011 : Barbie apprentie princesse (Barbie Princess Charm School)
2011 : Barbie - Merveilleux Noel (Barbie: A Perfect Christmas)

Origine de la serie : : Amerique
Titre original : Barbie
Réalisateur : Owen Hurley
Genre : Princesse,Animation
Date de diffusion : : 2001/2011

Codec : XVID
Qualité : DVDRIP
Format : avi
Langue : French
Taille Du Post : 14Go29

Nom de la release : Barbie.French.Integrale.DVDRIP.XviD-Notag



NFO -
Complete name                    : Barbie Au Bal Des 12 Princesses.avi
Format                           : AVI
Format/Info                      : Audio Video Interleave
File size                        : 702 MiB
Duration                         : 1h 22mn
Overall bit rate                 : 1 185 Kbps
Writing application              : VirtualDubMod 1.5.10.1 Fr | www.trad-fr.com ||  (build 2439/release)
Writing library                  : VirtualDubMod build 2439/release

Video
ID                               : 0
Format                           : MPEG-4 Visual
Format profile                   : Advanced Simple@L5
Format settings, BVOP            : Yes
Format settings, QPel            : No
Format settings, GMC             : No warppoints
Format settings, Matrix          : Default (H.263)
Codec ID                         : XVID
Codec ID/Hint                    : XviD
Duration                         : 1h 22mn
Bit rate                         : 1 044 Kbps
Width                            : 640 pixels
Height                           : 352 pixels
Display aspect ratio             : 16:9
Frame rate                       : 23.976 fps
Color space                      : YUV
Chroma subsampling               : 4:2:0
Bit depth                        : 8 bits
Scan type                        : Progressive
Bits/(Pixel*Frame)               : 0.193
Stream size                      : 618 MiB (88%)
Writing library                  : XviD 1.1.0 (UTC 2005-11-22)

Audio
ID                               : 1
Format                           : MPEG Audio
Format version                   : Version 1
Format profile                   : Layer 3
Mode                             : Joint stereo
Mode extension                   : MS Stereo
Codec ID                         : 55
Codec ID/Hint                    : MP3
Duration                         : 1h 22mn
Bit rate mode                    : Variable
Bit rate                         : 128 Kbps
Channel(s)                       : 2 channels
Sampling rate                    : 48.0 KHz
Stream size                      : 76.2 MiB (11%)
Alignment                        : Aligned on interleaves
Interleave, duration             : 24 ms (0.58 video frame)
Interleave, preload duration     : 276 ms
Writing library                  : LAME3.90.
Encoding settings                : -m j -V 4 -q 2 -lowpass 17.6 --abr 128



Liens de téléchargement

Liens de streaming





Commentaires